NTT Indycar Series 2019 INDYCAR Grand Prix Indianapolis HDTV x264 720

seeders: 6     leechers: 0     updated: 6 hours ago

Downloading Seeding from 0 peers
of -
0 b/s / 0 b/s

Warning! Use a VPN When Downloading Torrents.


Your IP Address is 163.172.12.146 Location is FR.
Hide your IP ADDRESS with a VPN!

Get VPN App Mac Now!


    NTT Indycar Series 2019 INDYCAR Grand Prix Indianapolis HDTV x264 720 ( 2.28 GB )
    Downloaded From.txt0.12 kB
    indycar.txt5.54 kB
    NTT Indycar Series 2019 INDYCAR Grand Prix Indianapolis HDTV x264 720.mkv2.28 GB

    By the way you can play this film on Mac with Elmedia Player

    NTT IndyCar Series 2019


    INDYCAR Grand Prix
    Indianapolis Motor Speedway - Indianapolis, IN
    May11
    3:50 PM ET







    General
    Complete name                            : NTT Indycar Series 2019 INDYCAR Grand Prix Indianapolis HDTV x264 720.mkv
    Format                                   : Matroska
    Format version                           : Version 4
    File size                                : 2.28 GiB
    Duration                                 : 1 h 50 min
    Overall bit rate                         : 2 947 kb/s
    Encoded date                             : UTC 2019-05-11 23:58:52
    Writing application                      : mkvmerge v33.0.0 ('A Little Bit of Madness') 64-bit
    Writing library                          : libebml v1.3.7 + libmatroska v1.5.0

    Video
    ID                                       : 1
    Format                                   : AVC
    Format/Info                              : Advanced Video Codec
    Format profile                           : [email protected]
    Format settings                          : CABAC / 5 Ref Frames
    Format settings, CABAC                   : Yes
    Format settings, RefFrames               : 5 frames
    Codec ID                                 : V_MPEG4/ISO/AVC
    Duration                                 : 1 h 50 min
    Bit rate                                 : 2 560 kb/s
    Width                                    : 1 280 pixels
    Height                                   : 720 pixels
    Display aspect ratio                     : 16:9
    Frame rate mode                          : Constant
    Frame rate                               : 59.940 (59940/1000) FPS
    Original frame rate                      : 59.940 (60000/1001) FPS
    Color space                              : YUV
    Chroma subsampling                       : 4:2:0
    Bit depth                                : 8 bits
    Scan type                                : Progressive
    Bits/(Pixel*Frame)                       : 0.046
    Stream size                              : 1.98 GiB (87%)
    Writing library                          : x264 core 148 r2744 b97ae06
    Default                                  : Yes
    Forced                                   : No

    Audio
    ID                                       : 2
    Format                                   : AC-3
    Format/Info                              : Audio Coding 3
    Commercial name                          : Dolby Digital
    Codec ID                                 : A_AC3
    Duration                                 : 1 h 50 min
    Bit rate mode                            : Constant
    Bit rate                                 : 384 kb/s
    Channel(s)                               : 6 channels
    Channel layout                           : L R C LFE Ls Rs
    Sampling rate                            : 48.0 kHz
    Frame rate                               : 31.250 FPS (1536 SPF)
    Bit depth                                : 16 bits
    Compression mode                         : Lossy
    Stream size                              : 305 MiB (13%)
    Language                                 : new
    Service kind                             : Complete Main
    Default                                  : Yes
    Forced                                   : No




    SIMILAR

    TORRENT   UPLOADEDSIZESEEDS LEECHS
    NTT Indycar Series 2019 Firestone Grand Prix of St. Petersburg HDTV x264 720 by HackRF 2 months 2.73 GB9 2
    NTT Indycar Series 2019 Acura Grand Prix of Long Beach HDTV x264 720 by HackRF 1 month 2.84 GB3 1
    NTT Indycar Series 2019 Honda Indy Grand Prix of Alabama HDTV x264 720 by HackRF 1 month 2.41 GB4 1

    Torrent Hash: 7D2FD93F84D5F44A569BD2E6D2B017F09A25C113


    Num Trackers: 3 trackers




    TRACKER'S LIST COMPATIBLE WITH BITTORRENT CLIENT


    TrackerSeedersLeechersCompletedUpdated
    udp://tracker.pirateparty.gr:6969/announce 6 0 0 6 hours
    http://carapax.net:6969/announce 1 0 0 6 hours
    udp://thetracker.org:80/announce 6 0 0 6 hours